Become a Site Supporter and Never see Ads again!

Author Topic: SHNTOOL - Truncated files?  (Read 815 times)

0 Members and 1 Guest are viewing this topic.

Offline ford prefect

  • (0)
  • Taperssection Member
  • ***
  • Posts: 550
  • Gender: Male
SHNTOOL - Truncated files?
« on: December 19, 2005, 01:00:57 PM »
Anyone know how to fix a truncated file in SHNtool?

C:\Temp\New Folder>shntool len *.wav
    length     expanded size   cdr  WAVE problems filename
     5:05.24      511379502    -b-   he   ---t-   hw2005-01-29d1t01.wav
     4:52.65       51661004    -b-   --   -----   hw2005-01-29d1t02-stripped.wav

     7:16.09       76931564    -b-   --   -----   hw2005-01-29d1t03-stripped.wav

     4:45.53       50398496    -b-   --   -----   hw2005-01-29d1t04-stripped.wav

     6:19.62       67000548    -b-   --   -----   hw2005-01-29d1t05-stripped.wav

     6:27.38       68356576    -b-   --   -----   hw2005-01-29d1t06-stripped.wav

     6:05.29       64453212    -b-   --   -----   hw2005-01-29d1t07-stripped.wav

     4:27.06       47112056    -b-   --   -----   hw2005-01-29d1t08-stripped.wav

     2:59.14       31608720    -b-   --   -----   hw2005-01-29d1t09-stripped.wav

    48:18.73      968901678 B                     (totals for 9 files, 0.5278 ov
erall compression ratio)

C:\Temp\New Folder>shntool fix *.wav
shntool [fix]: warning: no output format specified - assuming wav
shntool [fix]: warning: no shift direction specified - assuming backward shift
shntool [fix]: warning: file 'hw2005-01-29d1t01.wav' seems to be truncated
shntool [fix]: error: could not fix files due to errors, see above

 

RSS | Mobile
Page created in 0.025 seconds with 24 queries.
© 2002-2021 Taperssection.com
Powered by SMF